ecommerce-agency.co.uk

Torrents
Documentales 842
Películas 11256
Películas HD 2068
Series 1961
   Episodios 22513
Series HD 244
   Episodios 2743
Juegos 2689
   PC 1736
Variados 1521
   Deportes 36
   Programas 592
   Videoclips 102
   Otros 722
Música MP3 3525
Total Torrents 57258

Información
Esta web no contiene ningún tipo de fichero almacenado.

Todos los archivos se comparten mediante el BitTorrent, un programa P2P de intercambio entre usuarios.


Descarga la última versión de uTorrent y baja a la máxima velocidad:
Eagles - Hell Freezes Over
Total Descargas:  4.451 En Enero:  4.451

Fecha:  2016-07-22



Torrent:      Descargar         Tamaño:  1,94 GB
Descripción:

Format : AVI
Format/Info : Audio Video Interleave
Format profile : OpenDML
File size : 1.94 GiB
Duration : 1h 38mn
Overall bit rate : 2 821 Kbps
Movie name : Eagles - Hell Freezes Over (2005) DVDRip XviD AC3 peaSoup
Writing application : Lavf53.21.0
Original source form/Name : EAGLES_NTSC

Video
ID : 0
Format : MPEG-4 Visual
Format profile : Advanced Simple@L5
Format settings, BVOP : 2
Format settings, QPel : No
Format settings, GMC : No warppoints
Format settings, Matrix : Default (H.263)
Muxing mode : Packed bitstream
Codec ID : XVID
Codec ID/Hint : XviD
Duration : 1h 38mn
Bit rate : 2 361 Kbps
Width : 720 pixels
Height : 548 pixels
Display aspect ratio : 4:3
Frame rate : 29.970 fps
Color space : YUV
Chroma subsampling : 4:2:0
Bit depth : 8 bits
Scan type : Progressive
Compression mode : Lossy
Bits/(Pixel*Frame) : 0.200
Stream size : 1.63 GiB (84%)
Writing library : XviD 1.2.1 (UTC 2008-12-04)

Audio
ID : 1
Format : AC-3
Format/Info : Audio Coding 3
Mode extension : CM (complete main)
Format settings, Endianness : Big
Codec ID : 2000
Duration : 1h 38mn
Bit rate mode : Constant
Bit rate : 448 Kbps
Channel(s) : 6 channels
Channel positions : Front: L C R, Side: L R, LFE
Sampling rate : 48.0 KHz
Bit depth : 16 bits
Compression mode : Lossy
Stream size : 316 MiB (16%)
Alignment : Aligned on interleaves
Interleave, duration : 32 ms (0.96 video frame)



Volver al índice de Variados